#TITLE:Tonight;
#SUBTITLE:Expi3nze;
#ARTIST:Bigbang;
#TITLETRANSLIT:;
#SUBTITLETRANSLIT:;
#ARTISTTRANSLIT:;
#CREDIT:;
#BANNER:bn.png;
#BACKGROUND:bg.png;
#LYRICSPATH:;
#CDTITLE:cdtitle.png;
#MUSIC:Tonight.mp3;
#OFFSET:-0.282;
#SAMPLESTART:59.243;
#SAMPLELENGTH:29.654;
#SELECTABLE:YES;
#BPMS:0.000=129.999,5.000=130.005,6.000=129.999,12.000=130.005,13.000=129.999,18.000=130.005,19.000=129.999,25.000=130.005,26.000=129.999,31.000=260.024,31.500=65.006,31.750=130.012,32.000=129.999,35.000=130.005,36.000=129.999,41.000=130.005,42.000=129.999,48.000=130.005,49.000=129.999,55.000=130.005,56.000=129.999,61.000=130.005,62.000=129.999,68.000=130.005,69.000=129.999,74.000=130.005,75.000=129.999,81.000=130.005,82.000=129.999,87.000=130.005,88.000=129.999,93.000=130.005,94.000=129.999,100.000=130.005,101.000=129.999,107.000=130.005,108.000=129.999,114.000=130.005,115.000=129.999,120.000=130.005,121.000=129.999,127.000=260.024,127.500=64.999,127.750=130.012,128.000=129.999,131.000=130.005,132.000=129.999,138.000=130.005,139.000=129.999,144.000=130.005,145.000=129.999,151.000=130.005,152.000=129.999,158.000=130.005,159.000=129.999,164.000=130.005,165.000=129.999,171.000=130.005,172.000=129.999,177.000=130.005,178.000=129.999,184.000=130.005,185.000=129.999,190.000=130.005,191.000=129.999,197.000=130.005,198.000=129.999,203.000=130.005,204.000=129.999,211.000=130.005,212.000=129.999,217.000=130.005,218.000=129.999,224.000=130.005,225.000=129.999,231.000=130.005,232.000=129.999,237.000=130.005,238.000=129.999,244.000=130.005,245.000=129.999,250.000=130.005,251.000=129.999,257.000=130.005,258.000=129.999,263.000=130.005,264.000=129.999,270.000=130.005,271.000=129.999,276.000=130.005,277.000=129.999,279.000=260.024,279.500=64.999,279.750=130.012,280.000=129.999,281.000=130.005,282.000=129.999,288.000=130.005,289.000=129.999,294.000=130.005,295.000=129.999,301.000=130.005,302.000=129.999,307.000=130.005,308.000=129.999,314.000=130.005,315.000=129.999,320.000=130.005,321.000=129.999,327.000=130.005,328.000=129.999,334.000=130.005,335.000=129.999,340.000=130.005,341.000=129.999;
#STOPS:;
#BGCHANGES:;
// cache tags:
#FIRSTBEAT:0.000;
#LASTBEAT:340.500;
#SONGFILENAME:Songs/Super Dancer Online/Tonight (Bigbang)/Tonight.sm;
#HASMUSIC:1;
#HASBANNER:1;
#MUSICLENGTH:160.891;
// end cache tags

//---------------dance-single - ----------------
#NOTES:
     dance-single:
     :
     Hard:
     16:
     0.965,1.000,1.000,0.758,0.326,656.000,288.000,122.000,0.000,120.000:
0200
0000
0300
0020
0000
0030
0200
0000
0300
0000
0020
0000
0030
0000
0200
0000
,
0300
0000
0000
0000
0020
0000
0030
0200
0000
0300
0020
0000
0030
0000
0020
0000
,
0030
0000
0000
0000
2000
0000
3000
0020
0000
0030
0200
0000
0300
0000
0200
0000
,
0300
0000
0000
0000
0002
0000
0003
2000
0000
3000
0020
0000
0030
0000
0020
0000
,
0131
0000
0121
0230
0300
0002
0113
0020
,
0030
0000
0000
0000
2011
0000
3000
0002
0000
0003
2000
0000
3011
0000
0200
0000
,
0300
0020
1130
2000
3000
0020
0131
0020
,
2030
0000
0000
3111
,
0111
0000
0121
0231
1300
0012
0113
0021
,
1130
0000
0100
0000
2011
0000
3010
0002
0100
0003
2010
0000
3011
0000
0210
0000
,
1300
0120
1130
2010
3100
0021
0131
0120
,
0031
0000
0100
2000
0110
3000
0021
0000
0130
0000
0120
0000
1031
0000
0021
0000
,
1030
0010
0121
0231
1300
0012
0113
0021
,
1130
0000
0100
0000
2011
0000
3010
0002
0100
0003
2010
0000
3011
0000
0210
0000
,
1300
0120
1130
2010
3001
0120
0131
0001
,
1100
0000
0000
0011
0000
0000
1010
0000
0000
0000
1010
0000
0000
0000
0010
0000
,
0100
0000
0010
0000
0110
0000
0100
0000
0010
0100
0010
0100
0010
0010
0100
0010
,
0100
0010
0010
0100
0010
0100
0010
0100
0010
0100
0010
0100
0100
0010
0100
0010
,
0100
0000
0001
0000
1001
0000
1000
0000
0001
1000
0001
1000
0001
0001
1000
0001
,
1000
0001
1001
1000
0010
0001
0011
1000
,
1000
0000
0100
0000
1100
0000
1000
0000
0100
1000
0100
1000
1000
0100
1000
0100
,
1000
0100
0100
1000
0100
0000
1000
0000
0100
1000
0100
1000
0100
0100
1000
0100
,
1000
1000
0100
1000
0100
0000
1000
0000
0001
1000
0001
1000
1000
0001
1000
0001
,
1001
1000
0001
0100
0110
0100
0010
0100
,
0101
0001
1100
1000
0011
0110
1100
0001
,
1100
0001
0011
1000
1010
0010
0101
0001
,
1100
0110
0011
1100
1100
0001
1100
1000
,
0011
1001
1100
0001
0110
0001
1100
1000
,
0011
0011
1100
0011
0011
1010
1010
0011
,
1100
1100
1001
1100
0011
1100
1100
0011
,
1100
1100
0011
0110
1100
0011
0011
1100
0110
0011
0011
1100
1100
0011
0110
0011
,
2011
0000
0000
0111
,
3011
0100
0121
0231
1300
0012
0113
0021
,
1130
0000
0100
0000
2011
0000
3010
0002
0100
0003
2010
0000
3011
0000
1200
0000
,
1300
0120
1130
2010
3100
0021
0131
0120
,
0031
0000
0100
2000
0110
3000
0021
0000
0130
0000
0120
0000
1031
0000
0021
0000
,
1030
0100
0121
0231
1300
0012
0113
0021
,
1130
0000
0100
0000
2011
0000
3010
0002
0100
0003
2010
0000
3011
0000
1200
0000
,
1300
0120
1130
2010
3100
0021
0131
0120
,
0031
0000
0100
2000
0110
3000
0021
0000
0130
0000
0120
0000
1031
0000
0021
0000
,
0231
0000
0010
0001
1010
0001
0010
0000
0001
0000
1000
0000
0011
0000
1000
0000
,
2301
0000
0100
0000
0110
0000
0001
0010
0100
0000
0010
0000
0101
0000
0010
0000
,
3021
0000
1000
0100
1001
0100
1000
0000
0100
0000
0001
0100
1100
0001
0100
0000
,
2031
0000
0100
0010
0101
0010
0001
0100
0010
0000
0100
0010
0110
0001
0100
0000
,
3010
0000
0001
0000
0011
0000
1000
0000
1100
0000
1000
0010
1100
0001
0010
0100
,
0010
0000
0001
0000
1010
0000
0100
0010
0100
0000
0010
0000
0110
0000
1000
0000
,
0011
0000
1000
0100
1001
0010
0001
0000
1100
0000
0001
0000
0110
0000
0010
0000
,
1000
0000
0110
0010
0010
0100
0110
0010
,
2100
0011
0011
0011
,
0011
0200
0312
0203
0311
0000
0011
0000
,
3012
0110
0110
0110
,
0110
2000
3210
0320
1130
0000
1100
0000
,
1103
0010
0011
1000
0011
0001
1100
0001
,
1001
1000
0011
1000
0011
1000
1100
0010
,
1100
0001
0010
0001
0010
0001
0010
0001
1100
0001
0010
0001
0010
0001
0010
0001
,
1100
1100
0011
1100
0011
0011
2011
3012
,
2103
3012
1103
1100
0011
0011
2011
3012
,
2113
0110
0011
0110
0011
0110
0011
0011
0110
0011
0110
0011
0110
0110
0011
0110
,
3112
0000
0000
0000
,
0000
0000
0000
0000
0003
1000
0010
0100
,
0001
0001
0010
0100
0010
0010
1000
0100
,
1000
1000
0010
0001
0100
0010
0110
1100
,
1100
0010
0100
0101
0001
0110
1100
0010
,
0010
0100
0010
1000
0100
0011
1100
1100
,
0011
1100
0001
1100
1100
0011
0110
1100
,
0010
0001
0011
1000
0100
0010
0110
1100
,
0011
0010
0001
1100
1000
0011
0011
0010
,
1000
1100
0001
0010
0001
0001
1100
0000
,
2010
0010
0011
0100
0001
0100
0110
0010
,
3200
0000
0000
1311
,
0211
0000
0010
0001
1010
0001
0010
0000
0001
0000
1000
0000
0011
0000
1000
0000
,
2301
0000
0100
0000
0110
0000
0001
0010
0100
0000
0010
0000
0101
0000
0010
0000
,
3021
0000
1000
0100
1001
0100
1000
0000
0100
0000
0001
0100
1100
0001
0100
0000
,
2031
0000
0100
0010
0101
0010
0001
0100
0010
0000
0100
0010
0110
0001
0100
0000
,
3010
0000
0001
0000
0011
0000
1000
0000
1100
0000
1000
0010
1100
0001
0010
0100
,
0010
0000
0001
0000
1010
0000
0100
0010
0100
0000
0010
0000
0110
0000
1000
0000
,
0011
0000
1000
0100
1001
0010
0001
0000
1100
0000
0001
0000
0110
0000
0010
0000
,
1000
0000
0110
0010
0010
0100
0110
0010
,
2220
0000
0000
0000
,
0000
0000
0000
0000
,
0030
0000
0000
0000
,
0300
0000
0000
0000
,
3020
0000
0000
0000
,
0230
0000
0000
0000
,
0302
0000
0000
0000
,
0000
0003
0000
0000
0000
0000
0000
0000
;
